Lunachicks - Apr 25, 2019 · Lunachicks Recall Fighting Sexism with Sisterhood. The LUNACHICKS April 25, 2019. 0. We formed the Lunachicks in 1988 as teenagers—four best friends from New York City who were obsessed with music and each other. Being in a band allowed us to devote all our free time to both of those things. That was the extent of our agenda.

 
LunachicksLunachicks - View credits, reviews, tracks and shop for the 1995 CD release of "Binge And Purge" on Discogs.

Drop Dead Live by Lunachicks released in 1998. Find album reviews, track lists, credits, awards and more at AllMusic. Boys Lie Your Truly Corduroy Trucker Hat. $ 45. New. $ 45. We offer trendy women's clothing that keeps you on the top of your game. Get your hands on the latest trendy dresses, tops, and jeans at Lunachick. Get all the lyrics to songs on Luxury Problem and join the Genius community of music scholars to learn the meaning behind the lyrics. Filename C:\Documents and Settings\Marion\Mes documents\jacques\02 Lunachicks Get Off The Road.wav Pre-gap length 0:00:02.20 Peak level 77.8 % Track quality 99.6 % Test CRC F5B78D63 Copy CRC F5B78D63 Track not present in AccurateRip database Copy OK Track 3 Filename C:\Documents and Settings\Marion\Mes documents\jacques\03 …Nov 9, 2023 · By Melanie Goodfellow. November 9, 2023 10:21am. Pretty Ugly: The Story Of The Lunachicks Ilya Chaiken. EXCLUSIVE: Submarine has acquired worldwide distribution rights to Ilya Chaiken ’s music ... Nov 9, 2023 · By Melanie Goodfellow. November 9, 2023 10:21am. Pretty Ugly: The Story Of The Lunachicks Ilya Chaiken. EXCLUSIVE: Submarine has acquired worldwide distribution rights to Ilya Chaiken ’s music ... Listen to Jerk of All Trades by Lunachicks on Apple Music. Stream songs including "Drop Dead", "Fingerful" and more. Album · 1995 · 16 Songs. Sign In Search. Listen Now Browse Radio Search Open in iTunes. Sign In Sign In Jerk of All ...Jun 1, 2021 · The Lunachicks, as people, are as hilarious, complicated, and undeniable as their songs.”― Kathleen Hanna of The Julie Ruin, Le Tigre, and Bikini Kill “As a rebellious New York City teenager deeply involved in the underground music scene, I cannot stress the magnitude and impact the Lunachicks had on not just me, not just female musicians ... Nov 9, 2023 · Submarine and Concord Originals Board Ilya Chaiken’s New Music Doc “Pretty Ugly: The Story of the Lunachicks” From RBG’s Julie Cohen and Betsy West November 9, 2023 Submarine has landed worldwide distribution rights to the documentary feature Pretty Ugly: The Story of the Lunachicks Lunachicks. 7,751 likes · 277 talking about this. Official Page for the NYC band LUNACHICKS. Formed as teenagers at NYC’s famed LaGuardia High School, Lunachicks were on a mission to loudly trounce planet Earth just like their idols the Ramones, Black Sabbath, …View credits, reviews, tracks and shop for the 1992 CD release of "Binge And Purge" on Discogs.Filename C:\Documents and Settings\Marion\Mes documents\jacques\02 Lunachicks Get Off The Road.wav Pre-gap length 0:00:02.20 Peak level 77.8 % Track quality 99.6 % Test CRC F5B78D63 Copy CRC F5B78D63 Track not present in AccurateRip database Copy OK Track 3 Filename C:\Documents and Settings\Marion\Mes documents\jacques\03 …TRACK LIST:1) Less Teeth, More Tits (0:00)2) Luxury Problem (3:08)3) I'll Be the One (6:02)4) Crash (7:42)5) Terror Firmer (11:51)6) Say What You Mean (14:08...Accurate Lunachicks guitar, bass, drum, piano, guitar pro and power tabs at 911Tabs.Com - tabs search engineLunachicks, NYC’s loudest native daughters triumphantly returned after a 17-year hiatus, to the delight of a pair of jam-packed crowds during a two-night stand at Webster Hall. Originally ...432K views 16 years ago. Lunachicks - "Don't Want You" - Like this video? Subscribe to see thousands more at the Net's biggest, uncensored, completely d.i.y. … The Lunachicks were unsung heroines of the ‘90s independent rock world and a force of nature. We first meet Gina, Theo, Squid, and Sindi as teenagers in the 1980’s NYC, where the girls’ bond over punk rock and John Waters movies inspires them to form a punk band. Discovered by Kim Gordon and Thurston Moore of Sonic Youth, the young girls ... Lunachicks on the runLunachicks are having fun!Lunachicks make lots of noiseto prove rock & roll's not just for boyson the road and on the ragwe fuckin rool ... Lunachicks discography and songs: Music profile for Lunachicks, formed 1987. Genres: Riot Grrrl, Punk Rock, Hardcore Punk. Albums include Short Music for Short People, Babysitters on Acid, and Binge and Purge. TRACK LIST:1) Jan Brady (0:00)2) Glad I'm Not Yew (3:09)3) Babysitters On Acid (5:38)4) Makin' It [With Other Species] (9:46)5) Mabel Rock (11:27)6) Theme So... BOOK | Lunachicks Provided to YouTube by CDBabyJerk of All Trades · LunachicksJerk of All Trades℗ 2016 LunachicksReleased on: 2016-10-16Auto-generated by YouTube.May 22, 2020 · The Lunachicks were like cartoon comic book characters that were fun and witty and with songs about buttplugs, sporks, childish pranks, and feline friends. They mixed props, over the top make-up, wigs, and costumes while delivering an authentic message through their music, and their guitar riffs were on fire! The Lunachicks perform Dear Dottie at Webster Hall, NYC 11.27.21Lunachicks - live @ Lee's Palace, Toronto, ON, Canada 9/10/94Shot by Rick Scullion, Punk Rick's Videos.http://www.facebook.com/punkricksvideoshttp://www.face...Lunachicks; Jerk of All Trades; Fingerful Lyrics. More Featured Meanings. Mental Istid Ebba Grön. This is one of my favorite songs. https://fnfgo.io. Cajun Girl Little Feat. Overall about difficult moments of disappointment and vulnerability. Having hope and longing, while remaining optimistic for the future. Encourages the belief that with each new morning …432K views 16 years ago. Lunachicks - "Don't Want You" - Like this video? Subscribe to see thousands more at the Net's biggest, uncensored, completely d.i.y. …Luxury Problem by Lunachicks released in 1999. Find album reviews, track lists, credits, awards and more at AllMusic. 0.00 / 0.00 New Releases. Discover. Genres Moods Themes. Blues Classical Country. Electronic Folk International. Pop/Rock Rap R&B. Jazz Latin All Genres. Articles. My Profile. Staff Picks. Year in Review. Advanced Search. …About Press Copyright Contact us Creators Advertise Developers Terms Privacy Policy & Safety How YouTube works Test new features NFL Sunday Ticket Press Copyright ...Formed as teenagers at NYC’s famed LaGuardia High School, Lunachicks were on a mission to loudly trounce planet Earth just like their idols the Ramones, Black Sabbath, …Oct 4, 2012 · yeah 0:00throw it away 1:58the day squid's gerbil dead 4:17dear dotti 7:13mr. lady 10:04spork 13:05what's left 14:18gone kissin' 18:41don't want you 21:28the... Explore songs, recommendations, and other album details for Jerk Of All Trades by Lunachicks. Compare different versions and buy them all on Discogs.Videos made sometime in 1990 somewhere in London for Blast First! Camera Brian Nicholson. Edit and Direction Malcolm Whitehead. A good time was had by all.1....Lunachicks Recall Fighting Sexism with Sisterhood. The LUNACHICKS April 25, 2019. 0. We formed the Lunachicks in 1988 as teenagers—four best friends from New York City who were obsessed with music and each other. Being in a band allowed us to devote all our free time to both of those things. That was the extent of our agenda.In Photos: Reunited Lunachicks Play Triumphant New York City Show with Toilet Boys. The New York punk act didn't miss a beat during its first headlining shows in …432K views 16 years ago. Lunachicks - "Don't Want You" - Like this video? Subscribe to see thousands more at the Net's biggest, uncensored, completely d.i.y. …Buttplug Lyrics: I like face / I like your eyes / I love your skin / I like your thighs / I like your teeth / I like your ears / I like your feet / I think they're neat! / There's one problem I can Lunachicks é uma banda de punk rock formada só por mulheres, em New York City. [2] A banda foi formada em 1987 e está em hiato desde 2000. [ 3 ] Sua música é descrita como "uma mistura frenética de grunge, punk, metal, pop e rock". Provided to YouTube by CDBabyDon't Want You · LunachicksPretty Ugly℗ 1997 LunachicksReleased on: 1997-02-18Auto-generated by YouTube.View credits, reviews, tracks and shop for the 1999 Vinyl release of "Luxury Problem" on Discogs. Explore Lunachicks's discography including top tracks, albums, and reviews. Learn all about Lunachicks on AllMusic. Buttplug Lyrics: I like face / I like your eyes / I love your skin / I like your thighs / I like your teeth / I like your ears / I like your feet / I think they're neat! / There's one problem I canRythym Guitar Sindi Valsamis. Producer Wharton Tiers. Photography By Michael Lavine. Lyrics By Theo Kogan, Sydney “Squid” Silver & Gina Volpe. Lead guitar Gina Volpe. Drums Becky Wreck. Bass ...Fallopian Rhapsody: The Story of the Lunachicks is a coming-of-age tale about a band of NYC teenagers who forged a sisterhood, found salvation, and fervently crashed the gates of punk rock during the '90s, accidentally becoming feminist icons along the way.More than that, this is a story about the enduring friendship among the book's three central voices: …Album: Jerk Of All Trades 1995The last Lunachicks concert was on September 18, 2022 at Douglass Park in Chicago, Illinois, United States. The bands that performed were: Nine Inch Nails / The Academy Is…. / Ice Cube / Real Friends / Yeah Yeah Yeahs / The Maine / Action Bronson / renforshort / DJ Livia / Sleater‐Kinney / Midtown / Save Face / Alice Glass / Jimmy Eat World ...artist: LUNACHICKS (New York City, New York, USA) venue: CBGB's location: New York City, New York, USA date: 07 May 1991 length: 38 minutes …Songwriter Lunachicks. Producer Phil Hernandez, The Elegant Too & Chris Maxwell. Photography By Katrina Del Mare. Design Steve Fine & Gina Volpe. Layout Steve Fine & Gina Volpe. Engineer Greg Gordon.The last Lunachicks concert was on September 18, 2022 at Douglass Park in Chicago, Illinois, United States. The bands that performed were: Nine Inch Nails / The Academy Is…. / Ice Cube / Real Friends / Yeah Yeah Yeahs / The Maine / Action Bronson / renforshort / DJ Livia / Sleater‐Kinney / Midtown / Save Face / Alice Glass / Jimmy Eat World ...Provided to YouTube by CDBabyBad Ass Bitch · LunachicksLuxury Problem℗ 1999 LunachicksReleased on: 1999-06-08Auto-generated by YouTube.Album: Babbysitters On Acid 1990Lunachicks from United States. The top ranked albums by Lunachicks are Binge And Purge, Jerk Of All Trades and Luxury Problem. This artist appears in 7 charts and has received 0 comments and 0 ratings from …Jun 4, 2021 · We sat down with the band's lead singer, Theo Kogan—who was also shot by Richard Avedon for a Calvin Klein ad, acted in a handful of films, founded a lipgloss line, and now works as a makeup ... Lunachicks were an all-women band, formed in New York City in 1987. They played a mix of punk rock and heavy metal influenced by bands like The Ramones, Kiss, Motörhead and the MC5. Get all the lyrics to songs on Luxury Problem and join the Genius community of music scholars to learn the meaning behind the lyrics. Binge & Purge. Binge & Purge is the second studio album by the American punk band the Lunachicks. [3] It was released in 1992 via Safe House. [4] The album was produced by Mason Temple along with the band. The album was recorded at SST, Weehawken, NJ, mixed at Quad Recording, NYC, and mastered at MDI, Toronto.1987 – 2000 (13 years) Founded In. Manhattan, New York, New York, United States. Lunachicks are an American punk rock band from New York City. The band formed in 1987 and had been on hiatus since 2000, with the band reuniting in 2019. The band cited influences including the Ramones, Kiss, and the MC5. View wiki.Lunachicks Lunachicks. NYC, New York; Punk Rock; 39 Followers; Follow. What's Happening Lunachicks – Mmm Donuts. A comment was added to Mmm Donuts by seeing. It\'s about their love for donuts, and their favorite kinds of donuts.... 2 years ago. Songs; Albums; Followers; Login to Add Lyrics. songs; Song Name Comments; 11: 0: Get all the lyrics to songs on Luxury Problem and join the Genius community of music scholars to learn the meaning behind the lyrics. Don't say it mean. Say what you say what you say what you mean! I can't go on like this. I didn't understand a word you said. You didn't mean to not to. But you did't cuz you couldn't. But you would've if you could've. And you might but you wouldn't. Say what you mean.Light as a Feather/Shit Finger Dick 7" (1993)Hardcore PunkSympathy for the Record IndustryTrack 2 of 2 Lunachicks é uma banda de punk rock formada só por mulheres, em New York City. [2] A banda foi formada em 1987 e está em hiato desde 2000. [ 3 ] Sua música é descrita como "uma mistura frenética de grunge, punk, metal, pop e rock". Lunachicks Tabs with free online tab player. One accurate tab per song. Huge selection of 800,000 tabs. No abusive adsBOOK | LunachicksDiscover Jerk of All Trades by Lunachicks released in 1995. Find album reviews, track lists, credits, awards and more at AllMusic.About Press Copyright Contact us Creators Advertise Developers Terms Privacy Policy & Safety How YouTube works Test new features NFL Sunday Ticket … The Official Lunachicks YouTube Channel. More videos to be added soon! Light as a Feather/Shit Finger Dick 7" (1993)Hardcore PunkSympathy for the Record IndustryTrack 2 of 2Yet my life is on the brink. Yeah my life fucking stinks and. Too many friends too many. Phone calls, every one wants me. Is my biggest downfall. Isn´t it hard when you´re spoiled rotten? Got another luxury problem problem! Got a pimple and a dimple. I´m sick of my clothes and.artist: LUNACHICKS (New York City, New York, USA) venue: CBGB's location: New York City, New York, USA date: 07 May 1991 length: 38 minutes …Fallopian Rhapsody: The Story of the Lunachicks is a coming-of-age tale about a band of NYC teenagers who forged a sisterhood, found salvation, and fervently crashed the gates of punk rock during the '90s, accidentally becoming feminist icons along the way. More than that, this is a story about the enduring friendship among the book's …Lunachicks - 11. Hope To Die. Lunachick - 13. Return Of Brickface And Stucco. Lunachicks - 15. Down At The Pub. Explore songs, recommendations, and other album details for Luxury Problem by Lunachicks. Compare different versions and buy them all on Discogs.Lunachicks were an all-women band, formed in New York City in 1987. They played a mix of punk rock and heavy metal influenced by bands like The Ramones, Kiss, Motörhead and the MC5.Provided to YouTube by CDBabyDon't Want You · LunachicksPretty Ugly℗ 1997 LunachicksReleased on: 1997-02-18Auto-generated by YouTube.Explore the tracklist, credits, statistics, and more for Binge And Purge by Lunachicks. Compare versions and buy on DiscogsAlbum: Jerk Of All Trades 1995The Lunachicks with Jeanne Fury The Lunachicks released six albums and toured internationally for almost thirteen years.The New York Times described them as “feminist, trashy, righteous, foul-mouthed and certainly fun.”Jeanne Fury is a music journalist who’s been published in the Village Voice, Billboard, Entertainment Weekly, …Jun 1, 2021 · Fallopian Rhapsody: The Story of the Lunachicks is a coming-of-age tale about a band of NYC teenagers who forged a sisterhood, found salvation, and fervently crashed the gates of punk rock during the '90s, accidentally becoming feminist icons along the way. More than that, this is a story about the enduring friendship among the book's three ... Fallopian Rhapsody: The Story of the Lunachicks is a coming-of-age tale about a band of NYC teenagers who forged a sisterhood, found salvation, and fervently crashed the gates of punk rock during the '90s, accidentally becoming feminist icons along the way. More than that, this is a story about the enduring friendship among the book's …Sakari sushi ingersoll, Goodguys car show, Family powersports lubbock, Farm and fleet onalaska wi, Heb conroe tx, Waffle house inc., Ocean adventures marine park, Home depot garner nc, Hospital erlanger, Sams bar, Jojo's shake bar detroit menu, Pgt windows, Waudena doors, Merion mercy

The Lunachicks cover of Cars, Just What I Needed, 1999 and final line up of Theo Kogan-Vocals, Squid Syd-Bass, Gina Volpe-Guitar, Helen Destroy-Drums. Clinton international airport

Lunachicksgrace church sun valley

Lunachicks é uma banda de punk rock formada só por mulheres, em New York City. [2] A banda foi formada em 1987 e está em hiato desde 2000. [ 3 ] Sua música é descrita como "uma mistura frenética de grunge, punk, metal, pop e rock". Lunachicks. 7,751 likes · 277 talking about this. Official Page for the NYC band LUNACHICKS. Gina Volpe Music. 2,106 likes · 336 talking about this. Guitarist, Songwriter, Visual Artist, LunachickFind information on all of Lunachicks’s upcoming concerts, tour dates and ticket information for 2022-2023. Unfortunately there are no concert dates for Lunachicks scheduled in 2022. Songkick is the first to know of new tour announcements and concert information, so if your favorite artists are not currently on tour, join Songkick to track ...Fallopian Rhapsody: The Story of the Lunachicks is a coming-of-age tale about a band of NYC teenagers who forged a sisterhood, found salvation, and fervently crashed the gates of punk rock during the '90s, accidentally becoming feminist icons along the way. More than that, this is a story about the enduring friendship among the book's … When did Lunachicks release Babysitters on Acid? Album Credits. Vocals Theo Kogan. Rythym Guitar Sindi Valsamis. Producer Wharton Tiers. Photography By Michael Lavine. Something went wrong. There's an issue and the page could not be loaded. Reload page. 18K Followers, 430 Following, 207 Posts - See Instagram photos and videos from Lunachicks (@lunachicksofficial) Lunachicks - Live @ Lee's Palace, Toronto, Ontario, Canada 9/10/94 Shot by Rick Scullion, Punk Rick's Videos. http://www.facebook.com/punkricksvideoshttp://w...Find tickets from 49 dollars to Lunachicks (18+) on Wednesday March 13 at 8:00 pm at Fine Line Music Cafe in Minneapolis, MN. Mar 13. Wed · 8:00pm. Lunachicks (18+) Fine Line Music Cafe · Minneapolis, MN. From $49. Find tickets from 90 dollars to Lunachicks on Thursday March 14 at 8:00 pm at Vivarium in Milwaukee, WI. Mar 14.Lunachicks - Babysitters On Acid (Full Album) 39:18. Lunachicks - Babysitters On Acid. 4:08. Lunachicks - Sugar Luv. 3:52. Explore the tracklist, credits, statistics, and more for Babysitters On Acid by Lunachicks. Compare versions and buy on Discogs.Jul 1, 2021 · Fallopian Rhapsody: The Story of the Lunachicks (Hachette Books) charts the rise and fall and rise of the band through the main voices of Theo Kogan, Sydney “Squid” Silver and Gina Volpe, along with commentary from the rest of the band members past and present. Provided to YouTube by CDBabyDon't Want You · LunachicksPretty Ugly℗ 1997 LunachicksReleased on: 1997-02-18Auto-generated by YouTube.The Lunachicks were unsung heroines of the ‘90s independent rock world and a force of nature. We first meet Gina, Theo, Squid, and Sindi as teenagers in the 1980’s NYC, where the girls’ bond over punk rock and … Explore the tracklist, credits, statistics, and more for Lunachicks by Lunachicks. Compare versions and buy on Discogs yeah 0:00throw it away 1:58the day squid's gerbil dead 4:17dear dotti 7:13mr. lady 10:04spork 13:05what's left 14:18gone kissin' 18:41don't want you 21:28the...Listen to Lunachicks on Spotify. Artist · 31.9K monthly listeners. Preview of Spotify. Sign up to get unlimited songs and podcasts with occasional ads.Lunachicks in 1989 (Image credit: Ebet Roberts \/ Getty Images) “Oh my God, the baby’s been cooked!”. - Babysitters on Acid. At the tail-end of the flash metal era, a bunch of New York/New Jersey bands were sifting through the dying embers of 80’s glam metal and creating strange and wonderful new hybrids. Revelling in the misery of ...View credits, reviews, tracks and shop for the 1995 Vinyl release of "Binge And Purge" on Discogs.14U Lunachicks. 267 likes. Southern Illinois Travel Softball Team ...Gina Volpe of NYC punk vets Lunachicks (and Bantam) will release her first solo album, Delete the World, on February 23 via Heavy Nose Records.The first single is “Drink Me,” a catchy ...About Press Copyright Contact us Creators Advertise Developers Terms Privacy Policy & Safety How YouTube works Test new features NFL Sunday Ticket Press Copyright ...Dec 6, 2013 · TRACK LIST:1) Less Teeth, More Tits (0:00)2) Luxury Problem (3:08)3) I'll Be the One (6:02)4) Crash (7:42)5) Terror Firmer (11:51)6) Say What You Mean (14:08... Lunachicks; Jerk of All Trades; Fingerful Lyrics. More Featured Meanings. Mental Istid Ebba Grön. This is one of my favorite songs. https://fnfgo.io. Cajun Girl Little Feat. Overall about difficult moments of disappointment and vulnerability. Having hope and longing, while remaining optimistic for the future. Encourages the belief that with each new morning …Lunachicks - 11. Hope To Die. Lunachick - 13. Return Of Brickface And Stucco. Lunachicks - 15. Down At The Pub. Explore songs, recommendations, and other album details for Luxury Problem by Lunachicks. Compare different versions and buy them all on Discogs.Provided to YouTube by CDBabyJerk of All Trades · LunachicksJerk of All Trades℗ 2016 LunachicksReleased on: 2016-10-16Auto-generated by YouTube.View credits, reviews, tracks and shop for the 1999 Vinyl release of "Luxury Problem" on Discogs.Jun 4, 2021 · We sat down with the band's lead singer, Theo Kogan—who was also shot by Richard Avedon for a Calvin Klein ad, acted in a handful of films, founded a lipgloss line, and now works as a makeup ... Nov 9, 2023 · By Melanie Goodfellow. November 9, 2023 10:21am. Pretty Ugly: The Story Of The Lunachicks Ilya Chaiken. EXCLUSIVE: Submarine has acquired worldwide distribution rights to Ilya Chaiken ’s music ... Lunachicks Lunachicks. NYC, New York; Punk Rock; 39 Followers; Follow. What's Happening Lunachicks – Mmm Donuts. A comment was added to Mmm Donuts by seeing. It\'s about their love for donuts, and their favorite kinds of donuts.... 2 years ago. Songs; Albums; Followers; Login to Add Lyrics. songs; Song Name Comments; 11: 0: ABOUT. MUSIC. BOOK. MERCH. CONTACT. LUNACHICKS at RIOT FEST Sept 18 2022. Live @ Webster Hall 11/26 & 11/27 2021. Live @ Punk Rock Bowling 09/24 & 09/26 2021. Official website for New York City's seminal queens of punk rock, Lunachicks. Submarine and Concord Originals Board Ilya Chaiken’s New Music Doc “Pretty Ugly: The Story of the Lunachicks” From RBG’s Julie Cohen and Betsy West November 9, 2023 Submarine has landed worldwide distribution rights to the documentary feature Pretty Ugly: The Story of the LunachicksLUNACHICKS at Webster Hall in New York City 11.27.21. The Official Lunachicks YouTube Channel. More videos to be added soon! Filename C:\Documents and Settings\Marion\Mes documents\jacques\02 Lunachicks Get Off The Road.wav Pre-gap length 0:00:02.20 Peak level 77.8 % Track quality 99.6 % Test CRC F5B78D63 Copy CRC F5B78D63 Track not present in AccurateRip database Copy OK Track 3 Filename C:\Documents and Settings\Marion\Mes documents\jacques\03 … BOOK | Lunachicks She can do most anything. She is the jerk the jerk of all trades. She can built. She can fight. She can bust at your light. She is the jerk the jerk of all trades. Never ever ever ever underestimate. She will kill you kill you with her hate. She is the jerk the jerk of all trades.PA Lunachicks is on Facebook. Join Facebook to connect with PA Lunachicks and others you may know. Facebook gives people the power to share and makes the world more open and connected.Lunachicks. 7,759 likes · 12 talking about this. Official Page for the NYC band LUNACHICKSJun 27, 2023 · Escape is Terminal. Originally ripped by Escape is Terminal, posted on 7:03 AM. Description from Escape is Terminal: artist: LUNACHICKS (New York City, New York, USA) venue: CBGB's. location: New York City, New York, USA. date: 07 May 1991. length: 38 minutes. HEREIntroduction by Dick Montana and Joey Ramone, if you're into that sort of thing. Dec 2, 2021 · Lunachicks played their first headlining shows in 17 years over Thanksgiving weekend, joined by fellow NYC punk act Toilet Boys. Jul 1, 2021 · Fallopian Rhapsody: The Story of the Lunachicks (Hachette Books) charts the rise and fall and rise of the band through the main voices of Theo Kogan, Sydney “Squid” Silver and Gina Volpe, along with commentary from the rest of the band members past and present. PRETTY UGLY THE STORY OF THE LUNACHICKS - YouTube Contributions. Lunachicks discography and songs: Music profile for Lunachicks, formed 1987. Genres: Riot Grrrl, Punk Rock, Hardcore Punk. Albums include Short Music for …Buy Lunachicks tickets from the official Ticketmaster.com site. Find Lunachicks tour schedule, concert details, reviews and photos.Mutilated monkey meat, chopped up little birdies feet. French fried eyeballs rolling down the dirty street. And i forgot my spoon! Only want what you can't have and babe and what you can't have is ...Nov 9, 2023 · Submarine and Concord Originals Board Ilya Chaiken’s New Music Doc “Pretty Ugly: The Story of the Lunachicks” From RBG’s Julie Cohen and Betsy West November 9, 2023 Submarine has landed worldwide distribution rights to the documentary feature Pretty Ugly: The Story of the Lunachicks About Lunachicks. Formed in 1987 in New York City by Theo Kogan, Gina Volpe, and Sydney Silver, Lunachicks was one of the first bands to arrive on the “riot grrrl” scene. The band released six ... Provided to YouTube by CDBabySay What You Mean · LunachicksLuxury Problem℗ 1999 LunachicksReleased on: 1999-06-08Auto-generated by YouTube.Album: Babbysitters On Acid 1990Released on: 1999-06-08"Say What You Mean" is a song by American punk rock band Lunachicks, from the album "Luxury Problem", (released June 1, 1999).Lunachic... Get all the lyrics to songs on Luxury Problem and join the Genius community of music scholars to learn the meaning behind the lyrics. Jun 27, 2023 · Escape is Terminal. Originally ripped by Escape is Terminal, posted on 7:03 AM. Description from Escape is Terminal: artist: LUNACHICKS (New York City, New York, USA) venue: CBGB's. location: New York City, New York, USA. date: 07 May 1991. length: 38 minutes. HEREIntroduction by Dick Montana and Joey Ramone, if you're into that sort of thing. PRETTY UGLY THE STORY OF THE LUNACHICKS - YouTube Explore the tracklist, credits, statistics, and more for Lunachicks by Lunachicks. Compare versions and buy on Discogs Lunachicks, NYC’s loudest native daughters triumphantly returned after a 17-year hiatus, to the delight of a pair of jam-packed crowds during a two-night stand at Webster Hall. Originally ...View credits, reviews, tracks and shop for the 1997 CD release of "Pretty Ugly" on Discogs.Lunachicks Tabs with free online tab player. One accurate tab per song. Huge selection of 800,000 tabs. No abusive adsDec 2, 2021 · Lunachicks, NYC’s loudest native daughters triumphantly returned after a 17-year hiatus, to the delight of a pair of jam-packed crowds during a two-night stand at Webster Hall. Originally ... Superstrong Intro. tab. The Passenger 2:37. Pro. The Passenger. guitar pro. Learn how to play 15 songs by Lunachicks easily. At Ultimate-Guitar.com you will find 21 chords & tabs made by our ...The Lunachicks continue to inspire young women worldwide to follow in their footsteps and challenge convention.”. Tom Tom had the immense pleasure to speak with Chip English about how they first became a drummer and how life has been since departing from The Lunachicks. Don’t forget to check out “Say What You Mean,” the 1999 video for ... When did Lunachicks release Babysitters on Acid? Album Credits. Vocals Theo Kogan. Rythym Guitar Sindi Valsamis. Producer Wharton Tiers. Photography By Michael Lavine. Say what you, say what you mean. [Verse 2] I can't go on like this. I didn't understand a word you said. You didn't mean to not to. But you didn't ’cause you couldn't. But you would've if you ... Lunachicks are a punk rock band from New York City. The band formed in 1987 and went on hiatus in 2000. In 2019, they reunited. Sites: Wikipedia , MySpace. Members: Becky Wreck, Chip English, Gina Volpe, Helen Destroy, Sindi Benezra Valsamis, Sydney Silver, Theo Kogan. Variations: Lunachicks - Live @ The Opera House, Toronto, Ontario, Canada, October 27, 1996. Shot by Rick Scullion, Punk Rick's Videos. http://www.facebook.com/PunkRicks...Oct 27, 1996 · Lunachicks - Live @ The Opera House, Toronto, Ontario, Canada, October 27, 1996. Shot by Rick Scullion, Punk Rick's Videos. http://www.facebook.com/PunkRicks... New York based punk rock with Theo-Vocals, Sindi-Guitar, Gina-Guitar, Becky-Drums, Squid-Bass. Jan Brady (1989 Version), from the self titled Ep released 198...Once I had a love and it was a gasSoon turned out had a heart of glassSeemed like the real thing, only to findMucho mistrust, love's gone behindOnce I had a ... Listen to Lunachicks on Spotify. Artist · 31.9K monthly listeners. Preview of Spotify. Sign up to get unlimited songs and podcasts with occasional ads. Lunachicks Lunachicks. NYC, New York; Punk Rock; 39 Followers; Follow. What's Happening Lunachicks – Mmm Donuts. A comment was added to Mmm Donuts by seeing. It\'s about their love for donuts, and their favorite kinds of donuts.... 2 years ago. Songs; Albums; Followers; Login to Add Lyrics. songs; Song Name Comments; 11: 0: When did Lunachicks release Babysitters on Acid? Album Credits. Vocals Theo Kogan. Rythym Guitar Sindi Valsamis. Producer Wharton Tiers. Photography By Michael Lavine. Yes, this is the complete version of the Lunachicks marquee show from 1990. During this show, Dino Sex (from the murder junkies) exposed himself to the band ...The Lunachicks perform Dear Dottie at Webster Hall, NYC 11.27.21When I'm home I eat as much as I can. Pretty soon I'll need a bed pan. No guys like me except for lax. But he's my ex! [Chorus] Binge and purge the whole day through. I threw up on mom's good ...The Lunachicks obviously skipped the how-to-be-a-sweet-young-lady symposium in finishing school (actually, singer Theo Kogan, bassist Squid and guitarist Gina Volpe met at New York’s High School of Performing Arts): they roar and swill in the punk-polluted cesspool of garbage rock with the wanton enthusiasm of characters disgorged from a …. Longe optical, Maxim honda, Rockreation, Manchester beach koa, Box appliance, Dutch meadows, Commonwealth vet, Dominos athens al, Drag queen bingo.